999
DXF file: 1608_dropin_052423.dxf
999
Pro/ENGINEER 2015080 by Parametric Technology Corporation
  0
SECTION
  2
HEADER
  9
$ACADVER
  1
AC1027
  9
$DWGCODEPAGE
  3
ANSI_1252
  9
$EXTMAX
 10
34.0
 20
22.0
 30
0.0
  9
$EXTMIN
 10
0.0
 20
0.0
 30
0.0
  9
$LIMMIN
 10
0.0
 20
0.0
  9
$LIMMAX
 10
34.0
 20
22.0
  9
$VIEWCTR
 10
17.0
 20
11.0
  9
$VIEWSIZE
 40
22.0
  9
$CLAYER
  8
0
  9
$LTSCALE
 40
1.87
  9
$CELTYPE
  6
BYLAYER
  9
$DIMSCALE
 40
1.0
  9
$DIMASZ
 40
0.1875
  9
$DIMEXO
 40
0.0625
  9
$DIMDLI
 40
1.292
  9
$DIMEXE
 40
0.125
  9
$DIMCEN
 40
0.306
  9
$DIMLFAC
 40
1.0
  9
$DIMBLK
  1
_CLOSED
  9
$DIMALT
 70
0
  9
$DIMALTF
 40
25.4
  9
$DIMTXT
 40
0.15625
  9
$DIMTOL
 70
0
  9
$DIMLIM
 70
0
  9
$DIMTFAC
 40
1.0
  9
$DIMGAP
 40
0.09
  9
$DIMDSEP
 70
46
  9
$AUNITS
 70
0
  9
$PDMODE
 70
3
  9
$PDSIZE
 40
0.3125
  9
$HANDSEED
  5
343
  9
$TILEMODE
 70
1
  9
$MEASUREMENT
 70
0
  9
$INSUNITS
 70
1
  0
ENDSEC
  0
SECTION
  2
CLASSES
  0
CLASS
  1
ACDBDICTIONARYWDFLT
  2
AcDbDictionaryWithDefault
  3
AutoCAD 2000
 90
0
 91
1
280
0
281
0
  0
CLASS
  1
ACDBPLACEHOLDER
  2
AcDbPlaceHolder
  3
AutoCAD 2000
 90
0
 91
1
280
0
281
0
  0
CLASS
  1
LAYOUT
  2
AcDbLayout
  3
AutoCAD 2000
 90
0
 91
0
280
0
281
0
  0
ENDSEC
  0
SECTION
  2
TABLES
  0
TABLE
  2
VPORT
  5
8
100
AcDbSymbolTable
 70
2
  0
VPORT
  5
1F4
100
AcDbSymbolTableRecord
100
AcDbViewportTableRecord
  2
*ACTIVE
 70
0
 10
0.0
 20
0.0
 11
1.0
 21
1.0
 12
17.0
 22
11.0
 13
0.0
 23
0.0
 14
1.0
 24
1.0
 15
0.0
 25
0.0
 16
0.0
 26
0.0
 36
1.0
 17
0.0
 27
0.0
 37
0.0
 40
22.0
 41
1.5454545455
 42
50.0
 43
0.0
 44
0.0
 50
0.0
 51
0.0
 71
0
 72
100
 73
1
 74
1
 75
0
 76
0
 77
0
 78
0
  0
ENDTAB
  0
TABLE
  2
LTYPE
  5
5
100
AcDbSymbolTable
 70
6
  0
LTYPE
  5
14
100
AcDbSymbolTableRecord
100
AcDbLinetypeTableRecord
  2
BYBLOCK
 70
0
  3

 72
65
 73
0
 40
0.0
  0
LTYPE
  5
15
100
AcDbSymbolTableRecord
100
AcDbLinetypeTableRecord
  2
BYLAYER
 70
0
  3

 72
65
 73
0
 40
0.0
  0
LTYPE
  5
16
100
AcDbSymbolTableRecord
100
AcDbLinetypeTableRecord
  2
CONTINUOUS
 70
64
  3
Solid line
 72
65
 73
0
 40
0.0
  0
LTYPE
  5
1F5
100
AcDbSymbolTableRecord
100
AcDbLinetypeTableRecord
  2
CENTER
 70
64
  3
____ _ ____ _ ____ _ ____ _ ____ _ ____ _ ____
 72
65
 73
4
 40
0.6
 49
0.375
 74
0
 49
-0.075
 74
0
 49
0.075
 74
0
 49
-0.075
 74
0
  0
LTYPE
  5
1F6
100
AcDbSymbolTableRecord
100
AcDbLinetypeTableRecord
  2
HIDDEN
 70
64
  3
- - - - - - - - - - - - - - - - - - - -
 72
65
 73
2
 40
0.2
 49
0.1
 74
0
 49
-0.1
 74
0
  0
LTYPE
  5
1F7
100
AcDbSymbolTableRecord
100
AcDbLinetypeTableRecord
  2
PHANTOM
 70
64
  3
_____ _ _ _____ _ _ _____ _ _ _____
 72
65
 73
6
 40
0.8
 49
0.45
 74
0
 49
-0.05
 74
0
 49
0.1
 74
0
 49
-0.05
 74
0
 49
0.1
 74
0
 49
-0.05
 74
0
  0
LTYPE
  5
1F8
100
AcDbSymbolTableRecord
100
AcDbLinetypeTableRecord
  2
DOT
 70
64
  3
. . . . . . . . . . . . . . . . . . . .
 72
65
 73
2
 40
0.2
 49
0.1
 74
0
 49
-0.1
 74
0
  0
LTYPE
  5
1F9
100
AcDbSymbolTableRecord
100
AcDbLinetypeTableRecord
  2
DASHED
 70
64
  3
- - - - - - - - - - - - - - - - - - - -
 72
65
 73
2
 40
0.2
 49
0.1
 74
0
 49
-0.1
 74
0
  0
ENDTAB
  0
TABLE
  2
LAYER
  5
2
100
AcDbSymbolTable
 70
36
  0
LAYER
  5
10
100
AcDbSymbolTableRecord
100
AcDbLayerTableRecord
  2
0
 70
0
 62
7
  6
CONTINUOUS
370
-3
390
F
  0
LAYER
  5
1FA
100
AcDbSymbolTableRecord
100
AcDbLayerTableRecord
  2
DEFAULT_1
 70
0
 62
7
  6
CENTER
370
-3
390
F
  0
LAYER
  5
1FB
100
AcDbSymbolTableRecord
100
AcDbLayerTableRecord
  2
DEFAULT_2
 70
0
 62
8
  6
HIDDEN
370
-3
390
F
  0
LAYER
  5
1FC
100
AcDbSymbolTableRecord
100
AcDbLayerTableRecord
  2
DEFAULT_3
 70
0
 62
7
  6
PHANTOM
370
-3
390
F
  0
LAYER
  5
1FD
100
AcDbSymbolTableRecord
100
AcDbLayerTableRecord
  2
01_ALL_DTM_PLN
 70
0
 62
7
  6
CONTINUOUS
370
-3
390
F
  0
LAYER
  5
1FE
100
AcDbSymbolTableRecord
100
AcDbLayerTableRecord
  2
01__ASM_ALL_DTM_PLN
 70
0
 62
7
  6
CONTINUOUS
370
-3
390
F
  0
LAYER
  5
1FF
100
AcDbSymbolTableRecord
100
AcDbLayerTableRecord
  2
01__ASM_DEF_DTM_PLN
 70
0
 62
7
  6
CONTINUOUS
370
-3
390
F
  0
LAYER
  5
200
100
AcDbSymbolTableRecord
100
AcDbLayerTableRecord
  2
01___PRT_ALL_DTM_PLN
 70
0
 62
7
  6
CONTINUOUS
370
-3
390
F
  0
LAYER
  5
201
100
AcDbSymbolTableRecord
100
AcDbLayerTableRecord
  2
01___PRT_DEF_DTM_PLN
 70
0
 62
7
  6
CONTINUOUS
370
-3
390
F
  0
LAYER
  5
202
100
AcDbSymbolTableRecord
100
AcDbLayerTableRecord
  2
02_ALL_AXES
 70
0
 62
7
  6
CONTINUOUS
370
-3
390
F
  0
LAYER
  5
203
100
AcDbSymbolTableRecord
100
AcDbLayerTableRecord
  2
02__ASM_ALL_AXES
 70
0
 62
7
  6
CONTINUOUS
370
-3
390
F
  0
LAYER
  5
204
100
AcDbSymbolTableRecord
100
AcDbLayerTableRecord
  2
02___PRT_ALL_AXES
 70
0
 62
7
  6
CONTINUOUS
370
-3
390
F
  0
LAYER
  5
205
100
AcDbSymbolTableRecord
100
AcDbLayerTableRecord
  2
03_ALL_CURVES
 70
0
 62
7
  6
CONTINUOUS
370
-3
390
F
  0
LAYER
  5
206
100
AcDbSymbolTableRecord
100
AcDbLayerTableRecord
  2
03__ASM_ALL_CURVES
 70
0
 62
7
  6
CONTINUOUS
370
-3
390
F
  0
LAYER
  5
207
100
AcDbSymbolTableRecord
100
AcDbLayerTableRecord
  2
03___PRT_ALL_CURVES
 70
0
 62
7
  6
CONTINUOUS
370
-3
390
F
  0
LAYER
  5
208
100
AcDbSymbolTableRecord
100
AcDbLayerTableRecord
  2
04_ALL_DTM_PNT
 70
0
 62
7
  6
CONTINUOUS
370
-3
390
F
  0
LAYER
  5
209
100
AcDbSymbolTableRecord
100
AcDbLayerTableRecord
  2
04__ASM_ALL_DTM_PNT
 70
0
 62
7
  6
CONTINUOUS
370
-3
390
F
  0
LAYER
  5
20A
100
AcDbSymbolTableRecord
100
AcDbLayerTableRecord
  2
04___PRT_ALL_DTM_PNT
 70
0
 62
7
  6
CONTINUOUS
370
-3
390
F
  0
LAYER
  5
20B
100
AcDbSymbolTableRecord
100
AcDbLayerTableRecord
  2
05_ALL_DTM_CSYS
 70
0
 62
7
  6
CONTINUOUS
370
-3
390
F
  0
LAYER
  5
20C
100
AcDbSymbolTableRecord
100
AcDbLayerTableRecord
  2
05__ASM_ALL_DTM_CSYS
 70
0
 62
7
  6
CONTINUOUS
370
-3
390
F
  0
LAYER
  5
20D
100
AcDbSymbolTableRecord
100
AcDbLayerTableRecord
  2
05__ASM_DEF_DTM_CSYS
 70
0
 62
7
  6
CONTINUOUS
370
-3
390
F
  0
LAYER
  5
20E
100
AcDbSymbolTableRecord
100
AcDbLayerTableRecord
  2
05___PRT_ALL_DTM_CSYS
 70
0
 62
7
  6
CONTINUOUS
370
-3
390
F
  0
LAYER
  5
20F
100
AcDbSymbolTableRecord
100
AcDbLayerTableRecord
  2
05___PRT_DEF_DTM_CSYS
 70
0
 62
7
  6
CONTINUOUS
370
-3
390
F
  0
LAYER
  5
210
100
AcDbSymbolTableRecord
100
AcDbLayerTableRecord
  2
06_ALL_SURFS
 70
0
 62
7
  6
CONTINUOUS
370
-3
390
F
  0
LAYER
  5
211
100
AcDbSymbolTableRecord
100
AcDbLayerTableRecord
  2
06__ASM_ALL_SURFS
 70
0
 62
7
  6
CONTINUOUS
370
-3
390
F
  0
LAYER
  5
212
100
AcDbSymbolTableRecord
100
AcDbLayerTableRecord
  2
06___PRT_ALL_SURFS
 70
0
 62
7
  6
CONTINUOUS
370
-3
390
F
  0
LAYER
  5
213
100
AcDbSymbolTableRecord
100
AcDbLayerTableRecord
  2
07__ASM_ALL_SKELETONS
 70
0
 62
7
  6
CONTINUOUS
370
-3
390
F
  0
LAYER
  5
214
100
AcDbSymbolTableRecord
100
AcDbLayerTableRecord
  2
CLOSED_SHELL
 70
0
 62
7
  6
CONTINUOUS
370
-3
390
F
  0
LAYER
  5
215
100
AcDbSymbolTableRecord
100
AcDbLayerTableRecord
  2
WHITE
 70
0
 62
7
  6
CONTINUOUS
370
-3
390
F
  0
ENDTAB
  0
TABLE
  2
STYLE
  5
3
100
AcDbSymbolTable
 70
1
  0
STYLE
  5
11
100
AcDbSymbolTableRecord
100
AcDbTextStyleTableRecord
  2
STANDARD
 70
0
 40
0.0
 41
0.8
 50
0.0
 71
0
 42
0.2
  3
txt
  4

  0
STYLE
  5
216
100
AcDbSymbolTableRecord
100
AcDbTextStyleTableRecord
  2
TEXTSTYLE_1
 70
0
 40
0.0
 41
0.8
 50
0.0
 71
0
 42
0.2
  3
gdt
  4

  0
STYLE
  5
217
100
AcDbSymbolTableRecord
100
AcDbTextStyleTableRecord
  2
TEXTSTYLE_2
 70
0
 40
0.0
 41
1.0
 50
0.0
 71
0
 42
0.2
  3
triumb.ttf
  4

  0
STYLE
  5
218
100
AcDbSymbolTableRecord
100
AcDbTextStyleTableRecord
  2
TEXTSTYLE_3
 70
0
 40
0.0
 41
1.0
 50
0.0
 71
0
 42
0.2
  3
trium.ttf
  4

  0
ENDTAB
  0
TABLE
  2
VIEW
  5
6
100
AcDbSymbolTable
 70
0
  0
ENDTAB
  0
TABLE
  2
UCS
  5
7
100
AcDbSymbolTable
 70
0
  0
ENDTAB
  0
TABLE
  2
APPID
  5
9
100
AcDbSymbolTable
 70
1
  0
APPID
  5
219
100
AcDbSymbolTableRecord
100
AcDbRegAppTableRecord
  2
ACAD
 70
0
  0
ENDTAB
  0
TABLE
  2
BLOCK_RECORD
  5
1
100
AcDbSymbolTable
 70
0
  0
BLOCK_RECORD
  5
21A
100
AcDbSymbolTableRecord
100
AcDbBlockTableRecord
  2
*Model_Space
  0
BLOCK_RECORD
  5
21B
100
AcDbSymbolTableRecord
100
AcDbBlockTableRecord
  2
*Paper_Space
  0
BLOCK_RECORD
  5
21C
100
AcDbSymbolTableRecord
100
AcDbBlockTableRecord
  2
_CLOSED
  0
BLOCK_RECORD
  5
21D
100
AcDbSymbolTableRecord
100
AcDbBlockTableRecord
  2
*D0
  0
BLOCK_RECORD
  5
21E
100
AcDbSymbolTableRecord
100
AcDbBlockTableRecord
  2
*D1
  0
BLOCK_RECORD
  5
21F
100
AcDbSymbolTableRecord
100
AcDbBlockTableRecord
  2
*D2
  0
ENDTAB
  0
TABLE
  2
DIMSTYLE
  5
A
100
AcDbSymbolTable
 70
1
100
AcDbDimStyleTable
 71
0
  0
DIMSTYLE
105
220
100
AcDbSymbolTableRecord
100
AcDbDimStyleTableRecord
  2
STANDARD
 70
0
  3

  4

 40
1.0
 41
0.1875
 42
0.0625
 43
0.38
 44
0.125
 45
0.0
 46
0.0
 47
0.001
 48
0.001
140
0.15625
141
0.09
142
0.0
143
25.4
144
1.0
145
0.0
146
1.0
147
0.09
 71
0.0
 72
0.0
 73
1
 74
1
 75
0
 76
0
 77
0
 78
4
170
0
171
2
172
0
173
0
174
0
175
0
176
0
177
0
178
0
270
2
271
3
272
3
273
2
274
2
275
0
280
0
281
0
282
0
283
1
284
4
285
0
286
0
287
3
288
0
340
11
278
46
341
21C
342
21C
343
21C
344
21C
  0
DIMSTYLE
105
221
100
AcDbSymbolTableRecord
100
AcDbDimStyleTableRecord
  2
DIMSTYLE_1
 70
0
  3

  4

 40
1.0
 41
0.1875
 42
0.0625
 43
0.38
 44
0.125
 45
0.0
 46
0.0
 47
0.0
 48
0.0
140
0.187
141
0.09
142
0.0
143
25.4
144
1.0
145
0.0
146
1.0
147
0.0935
 71
0.0
 72
0.0
 73
1
 74
1
 75
0
 76
0
 77
0
 78
4
170
0
171
2
172
0
173
0
174
0
175
0
176
0
177
0
178
0
270
2
271
2
272
2
273
2
274
2
275
0
280
0
281
0
282
0
283
1
284
4
285
0
286
0
287
3
288
0
340
217
278
46
341
21C
342
21C
343
21C
344
21C
  0
DIMSTYLE
105
222
100
AcDbSymbolTableRecord
100
AcDbDimStyleTableRecord
  2
DIMSTYLE_2
 70
0
  3
<>
  4

 40
1.0
 41
0.1875
 42
0.0625
 43
0.38
 44
0.125
 45
0.0
 46
0.0
 47
0.0
 48
0.0
140
0.187
141
0.09
142
0.0
143
25.4
144
1.0
145
0.0
146
1.0
147
0.09
 71
0.0
 72
0.0
 73
1
 74
1
 75
0
 76
0
 77
0
 78
4
170
0
171
2
172
0
173
0
174
0
175
0
176
0
177
0
178
0
270
2
271
1
272
1
273
2
274
2
275
0
280
0
281
0
282
0
283
1
284
4
285
0
286
0
287
3
288
0
340
217
278
46
341
21C
342
21C
343
21C
344
21C
  0
ENDTAB
  0
ENDSEC
  0
SECTION
  2
BLOCKS
  0
BLOCK
  5
20
100
AcDbEntity
  8
0
100
AcDbBlockBegin
  2
*Model_Space
 70
0
 10
0.0
 20
0.0
 30
0.0
  3
*Model_Space
  1

  0
ENDBLK
  5
21
100
AcDbEntity
  8
0
100
AcDbBlockEnd
  0
BLOCK
  5
1C
100
AcDbEntity
  8
0
100
AcDbBlockBegin
  2
*Paper_Space
 70
0
 10
0.0
 20
0.0
 30
0.0
  3
*Paper_Space
  1

  0
ENDBLK
  5
1D
100
AcDbEntity
  8
0
100
AcDbBlockEnd
  0
BLOCK
  5
223
100
AcDbEntity
  8
0
100
AcDbBlockBegin
  2
_CLOSED
 70
64
 10
0.0
 20
0.0
  3
_CLOSED
  1

  0
LINE
  5
224
100
AcDbEntity
  8
0
  6
BYBLOCK
 62
0
100
AcDbLine
 10
0.0
 20
0.0
 11
-1.0
 21
0.1666666667
  0
LINE
  5
225
100
AcDbEntity
  8
0
  6
BYBLOCK
 62
0
100
AcDbLine
 10
-1.0
 20
0.1666666667
 11
-1.0
 21
-0.1666666667
  0
LINE
  5
226
100
AcDbEntity
  8
0
  6
BYBLOCK
 62
0
100
AcDbLine
 10
-1.0
 20
-0.1666666667
 11
0.0
 21
0.0
  0
LINE
  5
227
100
AcDbEntity
  8
0
  6
BYBLOCK
 62
0
100
AcDbLine
 10
-1.0
 20
0.0
 11
0.0
 21
0.0
  0
ENDBLK
  5
228
100
AcDbEntity
  8
0
  6
BYBLOCK
 62
0
100
AcDbBlockEnd
  0
BLOCK
  5
229
100
AcDbEntity
  8
0
100
AcDbBlockBegin
 62
2
  6
CONTINUOUS
  2
*D0
 70
65
 10
0.0
 20
0.0
  3
*D0
  1

  0
MTEXT
  5
22A
100
AcDbEntity
  8
0
100
AcDbMText
 62
2
  6
CONTINUOUS
  7
TEXTSTYLE_2
 71
2
 72
1
 10
11.6434260417
 20
18.9650628376
 30
0.0
 11
1.0
 21
0.0
 31
0.0
 44
0.9
  1
15.39"(391mm)
 40
0.187
 41
1.8914703704
  0
LINE
  5
22B
100
AcDbEntity
  8
0
100
AcDbLine
 62
2
  6
CONTINUOUS
 10
3.3167024965
 20
18.8715628376
 11
10.6041908565
 21
18.8715628376
  0
LINE
  5
22C
100
AcDbEntity
  8
0
100
AcDbLine
 62
2
  6
CONTINUOUS
 10
18.7067024965
 20
18.8715628376
 11
12.6826612269
 21
18.8715628376
  0
INSERT
  5
22D
100
AcDbEntity
  8
0
100
AcDbBlockReference
 62
2
  6
CONTINUOUS
  2
_CLOSED
 10
3.3167024965
 20
18.8715628376
 41
0.1875
 42
0.1875
 43
0.1875
 50
180.0
  0
INSERT
  5
22E
100
AcDbEntity
  8
0
100
AcDbBlockReference
 62
2
  6
CONTINUOUS
  2
_CLOSED
 10
18.7067024965
 20
18.8715628376
 41
0.1875
 42
0.1875
 43
0.1875
  0
ENDBLK
  5
22F
100
AcDbEntity
  8
0
  6
BYBLOCK
 62
0
100
AcDbBlockEnd
  0
BLOCK
  5
230
100
AcDbEntity
  8
0
100
AcDbBlockBegin
 62
2
  6
CONTINUOUS
  2
*D1
 70
65
 10
0.0
 20
0.0
  3
*D1
  1

  0
MTEXT
  5
231
100
AcDbEntity
  8
0
100
AcDbMText
 62
2
  6
CONTINUOUS
  7
TEXTSTYLE_2
 71
2
 72
1
 10
20.9141437948
 20
7.6651321857
 30
0.0
 11
1.0
 21
0.0
 31
0.0
 44
0.9
  1
19.10"(485mm)
 40
0.187
 41
1.8914703704
  0
LINE
  5
232
100
AcDbEntity
  8
0
100
AcDbLine
 62
2
  6
CONTINUOUS
 10
18.2692024965
 20
20.7655643204
 11
21.0391437948
 21
20.7655643204
  0
LINE
  5
233
100
AcDbEntity
  8
0
100
AcDbLine
 62
2
  6
CONTINUOUS
 10
18.2692024965
 20
1.6655643204
 11
21.0391437948
 21
1.6655643204
  0
LINE
  5
234
100
AcDbEntity
  8
0
100
AcDbLine
 62
2
  6
CONTINUOUS
 10
20.9141437948
 20
20.7655643204
 11
20.9141437948
 21
7.7586321857
  0
LINE
  5
235
100
AcDbEntity
  8
0
100
AcDbLine
 62
2
  6
CONTINUOUS
 10
20.9141437948
 20
1.6655643204
 11
20.9141437948
 21
7.3846321857
  0
INSERT
  5
236
100
AcDbEntity
  8
0
100
AcDbBlockReference
 62
2
  6
CONTINUOUS
  2
_CLOSED
 10
20.9141437948
 20
20.7655643204
 41
0.1875
 42
0.1875
 43
0.1875
 50
90.0
  0
INSERT
  5
237
100
AcDbEntity
  8
0
100
AcDbBlockReference
 62
2
  6
CONTINUOUS
  2
_CLOSED
 10
20.9141437948
 20
1.6655643204
 41
0.1875
 42
0.1875
 43
0.1875
 50
270.0
  0
ENDBLK
  5
238
100
AcDbEntity
  8
0
  6
BYBLOCK
 62
0
100
AcDbBlockEnd
  0
BLOCK
  5
239
100
AcDbEntity
  8
0
100
AcDbBlockBegin
 62
2
  6
CONTINUOUS
  2
*D2
 70
65
 10
0.0
 20
0.0
  3
*D2
  1

  0
MTEXT
  5
23A
100
AcDbEntity
  8
0
100
AcDbMText
 62
2
  6
CONTINUOUS
  7
TEXTSTYLE_2
 71
3
 72
1
 10
17.5765571096
 20
3.1034615893
 30
0.0
 11
1.0
 21
0.0
 31
0.0
 44
0.9
  1
R.5"(13mm)
 40
0.187
 41
1.480762963
  0
LINE
  5
23B
100
AcDbEntity
  8
0
100
AcDbLine
 62
2
  6
CONTINUOUS
 10
18.0014453471
 20
2.6214914008
 11
17.8265571096
 21
3.0099615893
  0
LINE
  5
23C
100
AcDbEntity
  8
0
100
AcDbLine
 62
2
  6
CONTINUOUS
 10
17.8265571096
 20
3.0099615893
 11
17.6700571096
 21
3.0099615893
  0
INSERT
  5
23D
100
AcDbEntity
  8
0
100
AcDbBlockReference
 62
2
  6
CONTINUOUS
  2
_CLOSED
 10
18.0014453471
 20
2.6214914008
 41
0.1875
 42
0.1875
 43
0.1875
 50
294.2371463392
  0
ENDBLK
  5
23E
100
AcDbEntity
  8
0
  6
BYBLOCK
 62
0
100
AcDbBlockEnd
  0
ENDSEC
  0
SECTION
  2
ENTITIES
  0
HATCH
  5
23F
100
AcDbEntity
  8
0
100
AcDbHatch
 62
2
  6
CONTINUOUS
 10
0.0
 20
0.0
 30
0.0
210
0.0
220
0.0
230
1.0
  2
A
 70
1
 71
0
 91
2
 92
1
 93
6
 72
1
 10
6.2569302026
 20
7.0252278419
 11
5.0819302026
 21
7.0252278419
 72
2
 10
6.2569302026
 20
7.0002278419
 40
0.025
 50
0.0
 51
90.0
 73
1
 72
1
 10
6.2819302026
 20
6.8502278419
 11
6.2819302026
 21
7.0002278419
 72
2
 10
6.2569302026
 20
6.8502278419
 40
0.025
 50
270.0
 51
360.0
 73
1
 72
1
 10
6.2569302026
 20
6.8252278419
 11
5.0819302026
 21
6.8252278419
 72
1
 10
5.0819302026
 20
6.8252278419
 11
5.0819302026
 21
7.0252278419
 97
0
 92
1
 93
6
 72
1
 10
10.8819302026
 20
7.0252278419
 11
9.7069302026
 21
7.0252278419
 72
1
 10
10.8819302026
 20
6.8252278419
 11
10.8819302026
 21
7.0252278419
 72
1
 10
10.8819302026
 20
6.8252278419
 11
9.7069302026
 21
6.8252278419
 72
2
 10
9.7069302026
 20
6.8502278419
 40
0.025
 50
180.0
 51
270.0
 73
1
 72
1
 10
9.6819302026
 20
6.8502278419
 11
9.6819302026
 21
7.0002278419
 72
2
 10
9.7069302026
 20
7.0002278419
 40
0.025
 50
90.0
 51
180.0
 73
1
 97
0
 75
0
 76
1
 98
1
 10
0.0
 20
0.0
  0
HATCH
  5
240
100
AcDbEntity
  8
0
100
AcDbHatch
 62
2
  6
CONTINUOUS
 10
0.0
 20
0.0
 30
0.0
210
0.0
220
0.0
230
1.0
  2
default__1
 70
1
 71
0
 91
2
 92
1
 93
20
 72
1
 10
6.4898809954
 20
5.3600624876
 11
6.546204667
 21
5.3600624876
 72
2
 10
6.4898809954
 20
5.3836845348
 40
0.0236220472
 50
183.0
 51
270.0
 73
1
 72
1
 10
6.3819143743
 20
6.9924563123
 11
6.4662913213
 21
5.3824482524
 72
2
 10
6.3347350262
 20
6.9899837474
 40
0.0472440945
 50
3.0
 51
90.0
 73
1
 72
1
 10
6.3347350262
 20
7.0372278419
 11
6.2113239852
 21
7.0372278419
 72
2
 10
6.2113239852
 20
7.0608498892
 40
0.0236220472
 50
183.0
 51
270.0
 73
1
 72
1
 10
6.1877343111
 20
7.0596136067
 11
6.184020374
 21
7.1304797485
 72
2
 10
6.207610048
 20
7.1317160309
 40
0.0236220472
 50
90.0
 51
183.0
 73
1
 72
1
 10
6.207610048
 20
7.1553380782
 11
6.4341083661
 21
7.1553380782
 72
2
 10
6.4341083661
 20
7.1049443774
 40
0.0503937008
 50
3.0
 51
90.0
 73
1
 72
1
 10
6.4844330041
 20
7.1075817799
 11
6.5561454716
 21
5.7392263852
 72
2
 10
6.6505041678
 20
5.744171515
 40
0.094488189
 50
183.0
 51
266.9999999984
 73
1
 72
1
 10
7.4701191789
 20
5.606599452
 11
6.645559038
 21
5.6498128179
 72
1
 10
7.4701191789
 20
5.606599452
 11
7.5330797404
 21
5.5954978063
 72
2
 10
7.5289778149
 20
5.5722346311
 40
0.0236220472
 50
5.0
 51
80.0
 73
1
 72
1
 10
7.5525099731
 20
5.5742934281
 11
7.5546117773
 21
5.5502696965
 72
2
 10
7.5310796191
 20
5.5482108994
 40
0.0236220472
 50
267.0
 51
5.0
 73
1
 72
1
 10
7.5298433366
 20
5.5246212253
 11
6.651858137
 21
5.5706344799
 72
2
 10
6.6469130077
 20
5.4762757915
 40
0.0944881889
 50
87.0
 51
177.0
 73
1
 72
1
 10
6.546204667
 20
5.3600624876
 11
6.5525543115
 21
5.4812209212
 97
0
 92
1
 93
20
 72
1
 10
9.4176557381
 20
5.3600624876
 11
9.4739794098
 21
5.3600624876
 72
1
 10
9.4176557381
 20
5.3600624876
 11
9.4113060937
 21
5.4812209212
 72
2
 10
9.3169473975
 20
5.4762757915
 40
0.0944881889
 50
3.0
 51
93.0
 73
1
 72
1
 10
8.4340170685
 20
5.5246212253
 11
9.3120022681
 21
5.5706344799
 72
2
 10
8.4327807861
 20
5.5482108994
 40
0.0236220472
 50
175.0
 51
273.0
 73
1
 72
1
 10
8.411350432
 20
5.5742934281
 11
8.4092486278
 21
5.5502696965
 72
2
 10
8.4348825902
 20
5.5722346311
 40
0.0236220472
 50
100.0
 51
175.0
 73
1
 72
1
 10
8.4937412262
 20
5.606599452
 11
8.4307806648
 21
5.5954978063
 72
1
 10
8.4937412262
 20
5.606599452
 11
9.3183013671
 21
5.6498128179
 72
2
 10
9.3133562373
 20
5.744171515
 40
0.094488189
 50
273.0000000016
 51
357.0
 73
1
 72
1
 10
9.479427401
 20
7.1075817799
 11
9.4077149335
 21
5.7392263852
 72
2
 10
9.529752039
 20
7.1049443774
 40
0.0503937008
 50
90.0
 51
177.0
 73
1
 72
1
 10
9.529752039
 20
7.1553380782
 11
9.7562503571
 21
7.1553380782
 72
2
 10
9.7562503571
 20
7.1317160309
 40
0.0236220472
 50
357.0
 51
90.0
 73
1
 72
1
 10
9.776126094
 20
7.0596136067
 11
9.7798400311
 21
7.1304797485
 72
2
 10
9.75253642
 20
7.0608498892
 40
0.0236220472
 50
270.0
 51
357.0
 73
1
 72
1
 10
9.75253642
 20
7.0372278419
 11
9.6291253789
 21
7.0372278419
 72
2
 10
9.6291253789
 20
6.9899837474
 40
0.0472440945
 50
90.0
 51
177.0
 73
1
 72
1
 10
9.5819460308
 20
6.9924563123
 11
9.4975690838
 21
5.3824482524
 72
2
 10
9.4739794098
 20
5.3836845348
 40
0.0236220472
 50
270.0
 51
357.0
 73
1
 97
0
 75
0
 76
1
 98
1
 10
0.0
 20
0.0
  0
DIMENSION
  5
241
100
AcDbEntity
  8
0
100
AcDbDimension
 62
2
  6
CONTINUOUS
  2
*D0
 10
18.7067024965
 20
18.8715628376
 11
11.6434260417
 21
18.8715628376
 70
160
 71
2
 42
15.39
  1
<>"(391mm)
  3
DIMSTYLE_1
100
AcDbAlignedDimension
 13
3.3167024965
 23
20.2655643204
 14
18.7067024965
 24
20.2655643204
100
AcDbRotatedDimension
  0
DIMENSION
  5
242
100
AcDbEntity
  8
0
100
AcDbDimension
 62
2
  6
CONTINUOUS
  2
*D1
 10
20.9141437948
 20
1.6655643204
 11
20.9141437948
 21
7.5716321857
 70
160
 71
2
 42
19.1
  1
<>"(485mm)
  3
DIMSTYLE_1
100
AcDbAlignedDimension
 13
18.2067024965
 23
20.7655643204
 14
18.2067024965
 24
1.6655643204
 50
270.0
100
AcDbRotatedDimension
  0
DIMENSION
  5
243
100
AcDbEntity
  8
0
100
AcDbDimension
 62
2
  6
CONTINUOUS
  2
*D2
 10
18.2067024965
 20
2.1655643204
 11
16.8361756282
 21
3.0099615893
 70
164
 71
3
 42
0.5
  1
R<>"(13mm)
  3
DIMSTYLE_2
100
AcDbRadialDimension
 15
18.0014453471
 25
2.6214914008
  0
MTEXT
  5
244
100
AcDbEntity
  8
0
100
AcDbMText
 62
2
  6
CONTINUOUS
  7
TEXTSTYLE_2
 71
1
 72
1
 10
5.30568422
 20
10.4609400202
 30
0.0
 11
1.0
 21
0.0
 31
0.0
 44
0.9
  1
NOTE:  Cutout template is provided as a\Pguide ONLY and must be checked against\Pactual sink to verify correct fit.
 40
0.25
 41
7.0407407407
  0
MTEXT
  5
245
100
AcDbEntity
  8
0
100
AcDbMText
 62
2
  6
CONTINUOUS
  7
TEXTSTYLE_2
 71
1
 72
1
 10
5.3434022497
 20
13.537747115
 30
0.0
 11
1.0
 21
0.0
 31
0.0
 44
0.9
  1
Model No. 1608\P \PDROP IN\P\H0.25;Customer Service:  877-565-2221\H0.15625; \Ftrium.ttf; 
 40
0.5
 41
5.6662037037
  0
MTEXT
  5
246
100
AcDbEntity
  8
0
100
AcDbMText
 62
2
  6
CONTINUOUS
  7
TEXTSTYLE_2
 71
1
 72
1
 10
5.2618941392
 20
14.6241473961
 30
0.0
 11
1.0
 21
0.0
 31
0.0
 44
0.9
  1
www.bocchiusa.com
 40
0.5
 41
6.937037037
  0
MTEXT
  5
247
100
AcDbEntity
  8
0
100
AcDbMText
 62
2
  6
CONTINUOUS
  7
TEXTSTYLE_2
 71
1
 72
1
 10
5.3346488828
 20
4.2508647612
 30
0.0
 11
1.0
 21
0.0
 31
0.0
 44
0.9
  1
Top Mount\PSink is dropped into the cut out provided\Pas a dashed line on this template.
 40
0.187
 41
5.1708962963
  0
MTEXT
  5
248
100
AcDbEntity
  8
0
100
AcDbMText
 62
2
  6
CONTINUOUS
  7
TEXTSTYLE_2
 71
1
 72
1
 10
29.3467950292
 20
21.3539986836
 30
0.0
 11
1.0
 21
0.0
 31
0.0
 44
0.9
  1
1608-xxx-0126
 40
0.187
 41
1.7889666667
  0
MTEXT
  5
249
100
AcDbEntity
  8
0
100
AcDbMText
 62
2
  6
CONTINUOUS
  7
TEXTSTYLE_2
 71
1
 72
1
 10
29.847779842
 20
1.1404718546
 30
0.0
 11
1.0
 21
0.0
 31
0.0
 44
0.9
  1
05/25/23
 40
0.187
 41
1.062437037
  0
LINE
  5
24A
100
AcDbEntity
  8
0
100
AcDbLine
 62
7
  6
CONTINUOUS
 10
0.0
 20
0.0
 11
0.0
 21
22.0
  0
LINE
  5
24B
100
AcDbEntity
  8
0
100
AcDbLine
 62
7
  6
CONTINUOUS
 10
0.0
 20
0.0
 11
34.0
 21
0.0
  0
LINE
  5
24C
100
AcDbEntity
  8
0
100
AcDbLine
 62
7
  6
CONTINUOUS
 10
0.0
 20
22.0
 11
34.0
 21
22.0
  0
LINE
  5
24D
100
AcDbEntity
  8
0
100
AcDbLine
 62
7
  6
CONTINUOUS
 10
34.0
 20
0.0
 11
34.0
 21
22.0
  0
LINE
  5
24E
100
AcDbEntity
  8
03___PRT_ALL_CURVES
100
AcDbLine
 62
7
  6
CONTINUOUS
 10
18.2067024965
 20
1.6655643204
 11
3.8167024965
 21
1.6655643204
  0
LINE
  5
24F
100
AcDbEntity
  8
03___PRT_ALL_CURVES
100
AcDbLine
 62
7
  6
CONTINUOUS
 10
3.3167024965
 20
2.1655643204
 11
3.3167024965
 21
20.2655643204
  0
LINE
  5
250
100
AcDbEntity
  8
0
100
AcDbLine
 62
7
  6
CONTINUOUS
 10
5.982050553
 20
16.5310565497
 11
5.9457221911
 21
16.4765506998
  0
LINE
  5
251
100
AcDbEntity
  8
0
100
AcDbLine
 62
7
  6
CONTINUOUS
 10
6.3284075504
 20
16.4027495661
 11
6.3999464783
 21
16.4924393679
  0
LINE
  5
252
100
AcDbEntity
  8
0
100
AcDbLine
 62
7
  6
CONTINUOUS
 10
6.947267183
 20
16.9693655545
 11
6.7814874276
 21
16.787697131
  0
LINE
  5
253
100
AcDbEntity
  8
0
100
AcDbLine
 62
7
  6
CONTINUOUS
 10
6.0490650696
 20
15.8894950176
 11
5.9866015786
 21
15.8270049124
  0
LINE
  5
254
100
AcDbEntity
  8
0
100
AcDbLine
 62
7
  6
CONTINUOUS
 10
7.0608299083
 20
17.0670396117
 11
6.947267183
 21
16.9693655545
  0
LINE
  5
255
100
AcDbEntity
  8
0
100
AcDbLine
 62
7
  6
CONTINUOUS
 10
5.9457221911
 20
16.4765506998
 11
5.8617012106
 21
16.4220448499
  0
LINE
  5
256
100
AcDbEntity
  8
0
100
AcDbLine
 62
7
  6
CONTINUOUS
 10
6.2228024662
 20
16.3357350495
 11
6.3284075504
 21
16.4027495661
  0
LINE
  5
257
100
AcDbEntity
  8
0
100
AcDbLine
 62
7
  6
CONTINUOUS
 10
7.2197964325
 20
17.1419851553
 11
7.0608299083
 21
17.0670396117
  0
LINE
  5
258
100
AcDbEntity
  8
0
100
AcDbLine
 62
7
  6
CONTINUOUS
 10
5.0418246423
 20
17.0738528429
 11
5.0418246423
 21
15.420499858
  0
LINE
  5
259
100
AcDbEntity
  8
0
100
AcDbLine
 62
7
  6
CONTINUOUS
 10
6.7814874276
 20
16.787697131
 11
6.6838133704
 21
16.581011374
  0
LINE
  5
25A
100
AcDbEntity
  8
0
100
AcDbLine
 62
7
  6
CONTINUOUS
 10
7.1266734008
 20
16.483363931
 11
7.1743660195
 21
16.5628605002
  0
LINE
  5
25B
100
AcDbEntity
  8
0
100
AcDbLine
 62
7
  6
CONTINUOUS
 10
6.3635915023
 20
15.5885418191
 11
6.4771542276
 21
15.7407217261
  0
LINE
  5
25C
100
AcDbEntity
  8
0
100
AcDbLine
 62
7
  6
CONTINUOUS
 10
7.1743660195
 20
16.5628605002
 11
7.2447871517
 21
16.6491436864
  0
LINE
  5
25D
100
AcDbEntity
  8
0
100
AcDbLine
 62
7
  6
CONTINUOUS
 10
6.2318779031
 20
15.4750057079
 11
6.3635915023
 21
15.5885418191
  0
LINE
  5
25E
100
AcDbEntity
  8
0
100
AcDbLine
 62
7
  6
CONTINUOUS
 10
7.2447871517
 20
16.6491436864
 11
7.3333591578
 21
16.7127515874
  0
LINE
  5
25F
100
AcDbEntity
  8
0
100
AcDbLine
 62
7
  6
CONTINUOUS
 10
6.1228662033
 20
15.420499858
 11
6.2318779031
 21
15.4750057079
  0
LINE
  5
260
100
AcDbEntity
  8
0
100
AcDbLine
 62
7
  6
CONTINUOUS
 10
5.9866015786
 20
15.8270049124
 11
5.8730388532
 21
15.7724990625
  0
LINE
  5
261
100
AcDbEntity
  8
0
100
AcDbLine
 62
7
  6
CONTINUOUS
 10
9.1593051294
 20
17.116994436
 11
8.9662458349
 21
17.02842243
  0
LINE
  5
262
100
AcDbEntity
  8
0
100
AcDbLine
 62
7
  6
CONTINUOUS
 10
7.3333591578
 20
16.7127515874
 11
7.4300149971
 21
16.746968132
  0
LINE
  5
263
100
AcDbEntity
  8
0
100
AcDbLine
 62
7
  6
CONTINUOUS
 10
5.4914979039
 20
16.4220448499
 11
5.4869734926
 21
16.7218270243
  0
LINE
  5
264
100
AcDbEntity
  8
0
100
AcDbLine
 62
7
  6
CONTINUOUS
 10
5.4869734926
 20
15.7724990625
 11
5.4869734926
 21
16.1063473931
  0
LINE
  5
265
100
AcDbEntity
  8
0
100
AcDbLine
 62
7
  6
CONTINUOUS
 10
5.982050553
 20
16.6014510677
 11
5.982050553
 21
16.5310565497
  0
LINE
  5
266
100
AcDbEntity
  8
0
100
AcDbLine
 62
7
  6
CONTINUOUS
 10
6.3999464783
 20
16.4924393679
 11
6.429461609
 21
16.6128153245
  0
LINE
  5
267
100
AcDbEntity
  8
0
100
AcDbLine
 62
7
  6
CONTINUOUS
 10
7.8716044256
 20
15.9973356933
 11
7.8034721132
 21
15.9087636872
  0
LINE
  5
268
100
AcDbEntity
  8
0
100
AcDbLine
 62
7
  6
CONTINUOUS
 10
8.0941522365
 20
15.615794744
 11
8.2531453748
 21
15.795227576
  0
LINE
  5
269
100
AcDbEntity
  8
0
100
AcDbLine
 62
7
  6
CONTINUOUS
 10
8.9662458349
 20
17.02842243
 11
8.7845774113
 21
16.8739803172
  0
LINE
  5
26A
100
AcDbEntity
  8
0
100
AcDbLine
 62
7
  6
CONTINUOUS
 10
9.1509137064
 20
16.6147662164
 11
9.2932809343
 21
16.72408923
  0
LINE
  5
26B
100
AcDbEntity
  8
0
100
AcDbLine
 62
7
  6
CONTINUOUS
 10
7.9374479181
 20
15.5158850953
 11
8.0941522365
 21
15.615794744
  0
LINE
  5
26C
100
AcDbEntity
  8
0
100
AcDbLine
 62
7
  6
CONTINUOUS
 10
7.8034721132
 20
15.9087636872
 11
7.6830961566
 21
15.8383957833
  0
LINE
  5
26D
100
AcDbEntity
  8
0
100
AcDbLine
 62
7
  6
CONTINUOUS
 10
10.8603241188
 20
17.1306208985
 11
10.6627404129
 21
17.0693018174
  0
LINE
  5
26E
100
AcDbEntity
  8
0
100
AcDbLine
 62
7
  6
CONTINUOUS
 10
6.0490650696
 20
15.9814736393
 11
6.0490650696
 21
15.8894950176
  0
LINE
  5
26F
100
AcDbEntity
  8
0
100
AcDbLine
 62
7
  6
CONTINUOUS
 10
6.2228024662
 20
16.2517140689
 11
6.2228024662
 21
16.3357350495
  0
LINE
  5
270
100
AcDbEntity
  8
0
100
AcDbLine
 62
7
  6
CONTINUOUS
 10
6.429461609
 20
16.6128153245
 11
6.429461609
 21
16.7150137931
  0
LINE
  5
271
100
AcDbEntity
  8
0
100
AcDbLine
 62
7
  6
CONTINUOUS
 10
6.4771542276
 20
15.7407217261
 11
6.4771542276
 21
16.0223530267
  0
LINE
  5
272
100
AcDbEntity
  8
0
100
AcDbLine
 62
7
  6
CONTINUOUS
 10
6.6838133704
 20
16.581011374
 11
6.6542982398
 21
16.2903312507
  0
LINE
  5
273
100
AcDbEntity
  8
0
100
AcDbLine
 62
7
  6
CONTINUOUS
 10
7.9192970442
 20
16.0972985703
 11
7.8716044256
 21
15.9973356933
  0
LINE
  5
274
100
AcDbEntity
  8
0
100
AcDbLine
 62
7
  6
CONTINUOUS
 10
8.2531453748
 20
15.795227576
 11
8.3530550235
 21
15.9814736393
  0
LINE
  5
275
100
AcDbEntity
  8
0
100
AcDbLine
 62
7
  6
CONTINUOUS
 10
8.7845774113
 20
16.8739803172
 11
8.6642014548
 21
16.6854986624
  0
LINE
  5
276
100
AcDbEntity
  8
0
100
AcDbLine
 62
7
  6
CONTINUOUS
 10
9.8065620969
 20
16.5242433184
 11
10.1336504247
 21
16.8103990304
  0
LINE
  5
277
100
AcDbEntity
  8
0
100
AcDbLine
 62
7
  6
CONTINUOUS
 10
9.8178997395
 20
16.0268774381
 11
9.6748218835
 21
15.9133413269
  0
LINE
  5
278
100
AcDbEntity
  8
0
100
AcDbLine
 62
7
  6
CONTINUOUS
 10
10.6627404129
 20
17.0693018174
 11
10.5264757882
 21
16.9671033488
  0
LINE
  5
279
100
AcDbEntity
  8
0
100
AcDbLine
 62
7
  6
CONTINUOUS
 10
9.6748218835
 20
15.9133413269
 11
9.5749122348
 21
15.8474446061
  0
LINE
  5
27A
100
AcDbEntity
  8
0
100
AcDbLine
 62
7
  6
CONTINUOUS
 10
9.6793995233
 20
15.4613792454
 11
9.8566712575
 21
15.5273307083
  0
LINE
  5
27B
100
AcDbEntity
  8
0
100
AcDbLine
 62
7
  6
CONTINUOUS
 10
7.1266734008
 20
16.0995341618
 11
7.1266734008
 21
16.483363931
  0
LINE
  5
27C
100
AcDbEntity
  8
0
100
AcDbLine
 62
7
  6
CONTINUOUS
 10
7.9397367379
 20
16.2221723241
 11
7.9192970442
 21
16.0972985703
  0
LINE
  5
27D
100
AcDbEntity
  8
0
100
AcDbLine
 62
7
  6
CONTINUOUS
 10
8.6642014548
 20
16.6854986624
 11
8.6165088361
 21
16.4924393679
  0
LINE
  5
27E
100
AcDbEntity
  8
0
100
AcDbLine
 62
7
  6
CONTINUOUS
 10
8.3530550235
 20
15.9814736393
 11
8.3916722053
 21
16.133600318
  0
LINE
  5
27F
100
AcDbEntity
  8
0
100
AcDbLine
 62
7
  6
CONTINUOUS
 10
9.0752575347
 20
16.4492977748
 11
9.1509137064
 21
16.6147662164
  0
LINE
  5
280
100
AcDbEntity
  8
0
100
AcDbLine
 62
7
  6
CONTINUOUS
 10
10.5264757882
 20
16.9671033488
 11
10.376584701
 21
16.769519643
  0
LINE
  5
281
100
AcDbEntity
  8
0
100
AcDbLine
 62
7
  6
CONTINUOUS
 10
10.0041458028
 20
15.6566741314
 11
10.1154463224
 21
15.7907031647
  0
LINE
  5
282
100
AcDbEntity
  8
0
100
AcDbLine
 62
7
  6
CONTINUOUS
 10
10.7966689271
 20
16.607467
 11
10.8999236998
 21
16.7106945861
  0
LINE
  5
283
100
AcDbEntity
  8
0
100
AcDbLine
 62
7
  6
CONTINUOUS
 10
9.8566712575
 20
15.5273307083
 11
10.0041458028
 21
15.6566741314
  0
LINE
  5
284
100
AcDbEntity
  8
0
100
AcDbLine
 62
7
  6
CONTINUOUS
 10
11.4508396449
 20
16.5378697809
 11
11.7755859244
 21
16.7967725679
  0
LINE
  5
285
100
AcDbEntity
  8
0
100
AcDbLine
 62
7
  6
CONTINUOUS
 10
11.47580375
 20
15.5226983266
 11
11.655236582
 21
15.6385232576
  0
LINE
  5
286
100
AcDbEntity
  8
0
100
AcDbLine
 62
7
  6
CONTINUOUS
 10
6.6542982398
 20
16.2903312507
 11
6.6838133704
 21
16.0245886182
  0
LINE
  5
287
100
AcDbEntity
  8
0
100
AcDbLine
 62
7
  6
CONTINUOUS
 10
7.9397367379
 20
16.3629879744
 11
7.9397367379
 21
16.2221723241
  0
LINE
  5
288
100
AcDbEntity
  8
0
100
AcDbLine
 62
7
  6
CONTINUOUS
 10
8.3916722053
 20
16.133600318
 11
8.3916722053
 21
16.3879786937
  0
LINE
  5
289
100
AcDbEntity
  8
0
100
AcDbLine
 62
7
  6
CONTINUOUS
 10
9.0434801983
 20
16.3084821245
 11
9.0752575347
 21
16.4492977748
  0
LINE
  5
28A
100
AcDbEntity
  8
0
100
AcDbLine
 62
7
  6
CONTINUOUS
 10
10.376584701
 20
16.769519643
 11
10.2721506409
 21
16.5764869626
  0
LINE
  5
28B
100
AcDbEntity
  8
0
100
AcDbLine
 62
7
  6
CONTINUOUS
 10
10.6945709776
 20
16.4447467493
 11
10.7966689271
 21
16.607467
  0
LINE
  5
28C
100
AcDbEntity
  8
0
100
AcDbLine
 62
7
  6
CONTINUOUS
 10
11.3736052814
 20
15.9678471768
 11
11.2668824015
 21
15.8452090146
  0
LINE
  5
28D
100
AcDbEntity
  8
0
100
AcDbLine
 62
7
  6
CONTINUOUS
 10
11.4508396449
 20
16.0541303631
 11
11.3736052814
 21
15.9678471768
  0
LINE
  5
28E
100
AcDbEntity
  8
0
100
AcDbLine
 62
7
  6
CONTINUOUS
 10
8.6165088361
 20
16.2063102701
 11
8.6346863241
 21
15.990522462
  0
LINE
  5
28F
100
AcDbEntity
  8
0
100
AcDbLine
 62
7
  6
CONTINUOUS
 10
8.6165088361
 20
16.4924393679
 11
8.6165088361
 21
16.2063102701
  0
LINE
  5
290
100
AcDbEntity
  8
0
100
AcDbLine
 62
7
  6
CONTINUOUS
 10
9.0434801983
 20
16.1858705764
 11
9.0434801983
 21
16.3084821245
  0
LINE
  5
291
100
AcDbEntity
  8
0
100
AcDbLine
 62
7
  6
CONTINUOUS
 10
11.655236582
 20
15.6385232576
 11
11.7823991557
 21
15.8065652186
  0
LINE
  5
292
100
AcDbEntity
  8
0
100
AcDbLine
 62
7
  6
CONTINUOUS
 10
5.9482580945
 20
16.6634039083
 11
5.982050553
 21
16.6014510677
  0
LINE
  5
293
100
AcDbEntity
  8
0
100
AcDbLine
 62
7
  6
CONTINUOUS
 10
6.0024902467
 20
16.0700456454
 11
6.0490650696
 21
15.9814736393
  0
LINE
  5
294
100
AcDbEntity
  8
0
100
AcDbLine
 62
7
  6
CONTINUOUS
 10
6.6838133704
 20
16.0245886182
 11
6.786011839
 21
15.8043296271
  0
LINE
  5
295
100
AcDbEntity
  8
0
100
AcDbLine
 62
7
  6
CONTINUOUS
 10
6.429461609
 20
16.7150137931
 11
6.3749557591
 21
16.8558294433
  0
LINE
  5
296
100
AcDbEntity
  8
0
100
AcDbLine
 62
7
  6
CONTINUOUS
 10
7.9101949931
 20
16.5038036247
 11
7.9397367379
 21
16.3629879744
  0
LINE
  5
297
100
AcDbEntity
  8
0
100
AcDbLine
 62
7
  6
CONTINUOUS
 10
10.244897716
 20
16.3516503318
 11
10.244897716
 21
16.1812929367
  0
LINE
  5
298
100
AcDbEntity
  8
0
100
AcDbLine
 62
7
  6
CONTINUOUS
 10
10.2721506409
 20
16.5764869626
 11
10.244897716
 21
16.3516503318
  0
LINE
  5
299
100
AcDbEntity
  8
0
100
AcDbLine
 62
7
  6
CONTINUOUS
 10
10.6695536442
 20
16.2630783257
 11
10.6945709776
 21
16.4447467493
  0
LINE
  5
29A
100
AcDbEntity
  8
0
100
AcDbLine
 62
7
  6
CONTINUOUS
 10
6.4771542276
 20
16.0223530267
 11
6.3885822216
 21
16.1699552941
  0
LINE
  5
29B
100
AcDbEntity
  8
0
100
AcDbLine
 62
7
  6
CONTINUOUS
 10
7.1834680706
 20
15.9859980507
 11
7.1266734008
 21
16.0995341618
  0
LINE
  5
29C
100
AcDbEntity
  8
0
100
AcDbLine
 62
7
  6
CONTINUOUS
 10
8.3916722053
 20
16.3879786937
 11
8.3462417923
 21
16.5969266563
  0
LINE
  5
29D
100
AcDbEntity
  8
0
100
AcDbLine
 62
7
  6
CONTINUOUS
 10
6.3749557591
 20
16.8558294433
 11
6.259130828
 21
16.9989072993
  0
LINE
  5
29E
100
AcDbEntity
  8
0
100
AcDbLine
 62
7
  6
CONTINUOUS
 10
8.6346863241
 20
15.990522462
 11
8.7209695103
 21
15.8156672698
  0
LINE
  5
29F
100
AcDbEntity
  8
0
100
AcDbLine
 62
7
  6
CONTINUOUS
 10
8.3462417923
 20
16.5969266563
 11
8.2463321436
 21
16.8035857991
  0
LINE
  5
2A0
100
AcDbEntity
  8
0
100
AcDbLine
 62
7
  6
CONTINUOUS
 10
9.1093236909
 20
16.0268774381
 11
9.0434801983
 21
16.1858705764
  0
LINE
  5
2A1
100
AcDbEntity
  8
0
100
AcDbLine
 62
7
  6
CONTINUOUS
 10
10.244897716
 20
16.1812929367
 11
10.2743862324
 21
15.9859980507
  0
LINE
  5
2A2
100
AcDbEntity
  8
0
100
AcDbLine
 62
7
  6
CONTINUOUS
 10
11.9770854401
 20
17.0926177345
 11
11.9680791283
 21
15.4244368659
  0
LINE
  5
2A3
100
AcDbEntity
  8
0
100
AcDbLine
 62
7
  6
CONTINUOUS
 10
6.893905743
 20
15.6964357231
 11
7.0472034459
 21
15.5590533026
  0
LINE
  5
2A4
100
AcDbEntity
  8
0
100
AcDbLine
 62
7
  6
CONTINUOUS
 10
6.786011839
 20
15.8043296271
 11
6.893905743
 21
15.6964357231
  0
LINE
  5
2A5
100
AcDbEntity
  8
0
100
AcDbLine
 62
7
  6
CONTINUOUS
 10
7.2788533079
 20
15.8906128134
 11
7.1834680706
 21
15.9859980507
  0
LINE
  5
2A6
100
AcDbEntity
  8
0
100
AcDbLine
 62
7
  6
CONTINUOUS
 10
10.699095389
 20
16.1131606243
 11
10.6695536442
 21
16.2630783257
  0
LINE
  5
2A7
100
AcDbEntity
  8
0
100
AcDbLine
 62
7
  6
CONTINUOUS
 10
12.4234835238
 20
15.4244368659
 11
12.4234835238
 21
16.0421520886
  0
LINE
  5
2A8
100
AcDbEntity
  8
0
100
AcDbLine
 62
7
  6
CONTINUOUS
 10
12.4393455778
 20
16.4816777749
 11
12.4393455778
 21
17.0926177345
  0
LINE
  5
2A9
100
AcDbEntity
  8
0
100
AcDbLine
 62
7
  6
CONTINUOUS
 10
7.723975544
 20
16.7082005618
 11
7.8125475501
 21
16.6196285557
  0
LINE
  5
2AA
100
AcDbEntity
  8
0
100
AcDbLine
 62
7
  6
CONTINUOUS
 10
8.7209695103
 20
15.8156672698
 11
8.8549719294
 21
15.6589629513
  0
LINE
  5
2AB
100
AcDbEntity
  8
0
100
AcDbLine
 62
7
  6
CONTINUOUS
 10
7.8125475501
 20
16.6196285557
 11
7.9101949931
 21
16.5038036247
  0
LINE
  5
2AC
100
AcDbEntity
  8
0
100
AcDbLine
 62
7
  6
CONTINUOUS
 10
8.2463321436
 20
16.8035857991
 11
8.1507109321
 21
16.9209286867
  0
LINE
  5
2AD
100
AcDbEntity
  8
0
100
AcDbLine
 62
7
  6
CONTINUOUS
 10
9.1956334912
 20
15.9155769184
 11
9.1093236909
 21
16.0268774381
  0
LINE
  5
2AE
100
AcDbEntity
  8
0
100
AcDbLine
 62
7
  6
CONTINUOUS
 10
10.2743862324
 20
15.9859980507
 11
10.360722647
 21
15.8111428584
  0
LINE
  5
2AF
100
AcDbEntity
  8
0
100
AcDbLine
 62
7
  6
CONTINUOUS
 10
12.9617018982
 20
17.0676383691
 11
12.9644418343
 21
16.4816777749
  0
LINE
  5
2B0
100
AcDbEntity
  8
0
100
AcDbLine
 62
7
  6
CONTINUOUS
 10
13.0104821947
 20
16.0421520886
 11
13.0104821947
 21
15.4244368659
  0
LINE
  5
2B1
100
AcDbEntity
  8
0
100
AcDbLine
 62
7
  6
CONTINUOUS
 10
13.4499926208
 20
15.4244368659
 11
13.4499926208
 21
17.0676383691
  0
LINE
  5
2B2
100
AcDbEntity
  8
0
100
AcDbLine
 62
7
  6
CONTINUOUS
 10
7.394678239
 20
15.8338181436
 11
7.2788533079
 21
15.8906128134
  0
LINE
  5
2B3
100
AcDbEntity
  8
0
100
AcDbLine
 62
7
  6
CONTINUOUS
 10
6.3885822216
 20
16.1699552941
 11
6.2228024662
 21
16.2517140689
  0
LINE
  5
2B4
100
AcDbEntity
  8
0
100
AcDbLine
 62
7
  6
CONTINUOUS
 10
5.9162070605
 20
16.1131606243
 11
6.0024902467
 21
16.0700456454
  0
LINE
  5
2B5
100
AcDbEntity
  8
0
100
AcDbLine
 62
7
  6
CONTINUOUS
 10
7.0472034459
 20
15.5590533026
 11
7.1766548394
 21
15.4931565817
  0
LINE
  5
2B6
100
AcDbEntity
  8
0
100
AcDbLine
 62
7
  6
CONTINUOUS
 10
5.8548879794
 20
16.7150137931
 11
5.9482580945
 21
16.6634039083
  0
LINE
  5
2B7
100
AcDbEntity
  8
0
100
AcDbLine
 62
7
  6
CONTINUOUS
 10
8.8549719294
 20
15.6589629513
 11
9.027564916
 21
15.5340359692
  0
LINE
  5
2B8
100
AcDbEntity
  8
0
100
AcDbLine
 62
7
  6
CONTINUOUS
 10
10.360722647
 20
15.8111428584
 11
10.4992228632
 21
15.6385232576
  0
LINE
  5
2B9
100
AcDbEntity
  8
0
100
AcDbLine
 62
7
  6
CONTINUOUS
 10
10.7921918064
 20
15.9564563059
 11
10.699095389
 21
16.1131606243
  0
LINE
  5
2BA
100
AcDbEntity
  8
0
100
AcDbLine
 62
7
  6
CONTINUOUS
 10
13.7332727
 20
17.0782696809
 11
13.7423741605
 21
15.420499858
  0
LINE
  5
2BB
100
AcDbEntity
  8
0
100
AcDbLine
 62
7
  6
CONTINUOUS
 10
14.1874697824
 20
15.420499858
 11
14.1897586106
 21
17.0739386951
  0
LINE
  5
2BC
100
AcDbEntity
  8
0
100
AcDbLine
 62
7
  6
CONTINUOUS
 10
7.1766548394
 20
15.4931565817
 11
7.3265459266
 21
15.4568548341
  0
LINE
  5
2BD
100
AcDbEntity
  8
0
100
AcDbLine
 62
7
  6
CONTINUOUS
 10
9.027564916
 20
15.5340359692
 11
9.2047089282
 21
15.4681924767
  0
LINE
  5
2BE
100
AcDbEntity
  8
0
100
AcDbLine
 62
7
  6
CONTINUOUS
 10
9.3387113472
 20
15.8429201947
 11
9.1956334912
 21
15.9155769184
  0
LINE
  5
2BF
100
AcDbEntity
  8
0
100
AcDbLine
 62
7
  6
CONTINUOUS
 10
6.259130828
 20
16.9989072993
 11
6.1024265096
 21
17.0851904855
  0
LINE
  5
2C0
100
AcDbEntity
  8
0
100
AcDbLine
 62
7
  6
CONTINUOUS
 10
8.1507109321
 20
16.9209286867
 11
7.9738028941
 21
17.02842243
  0
LINE
  5
2C1
100
AcDbEntity
  8
0
100
AcDbLine
 62
7
  6
CONTINUOUS
 10
10.4992228632
 20
15.6385232576
 11
10.6445895391
 21
15.5431380203
  0
LINE
  5
2C2
100
AcDbEntity
  8
0
100
AcDbLine
 62
7
  6
CONTINUOUS
 10
9.5635479781
 20
16.7331912811
 11
9.7134656795
 21
16.6173397359
  0
LINE
  5
2C3
100
AcDbEntity
  8
0
100
AcDbLine
 62
7
  6
CONTINUOUS
 10
10.1154463224
 20
15.7907031647
 11
9.8178997395
 21
16.0268774381
  0
LINE
  5
2C4
100
AcDbEntity
  8
0
100
AcDbLine
 62
7
  6
CONTINUOUS
 10
9.7134656795
 20
16.6173397359
 11
9.8065620969
 21
16.5242433184
  0
LINE
  5
2C5
100
AcDbEntity
  8
0
100
AcDbLine
 62
7
  6
CONTINUOUS
 10
10.1336504247
 20
16.8103990304
 11
9.9519287728
 21
16.9920940681
  0
LINE
  5
2C6
100
AcDbEntity
  8
0
100
AcDbLine
 62
7
  6
CONTINUOUS
 10
11.2373406567
 20
15.4704812965
 11
11.47580375
 21
15.5226983266
  0
LINE
  5
2C7
100
AcDbEntity
  8
0
100
AcDbLine
 62
7
  6
CONTINUOUS
 10
11.101076032
 20
15.4454639631
 11
11.2373406567
 21
15.4704812965
  0
LINE
  5
2C8
100
AcDbEntity
  8
0
100
AcDbLine
 62
7
  6
CONTINUOUS
 10
9.4499852527
 20
15.4386507318
 11
9.6793995233
 21
15.4613792454
  0
LINE
  5
2C9
100
AcDbEntity
  8
0
100
AcDbLine
 62
7
  6
CONTINUOUS
 10
5.0418246423
 20
15.420499858
 11
6.1228662033
 21
15.420499858
  0
LINE
  5
2CA
100
AcDbEntity
  8
0
100
AcDbLine
 62
7
  6
CONTINUOUS
 10
13.7423741605
 20
15.420499858
 11
14.1874697824
 21
15.420499858
  0
LINE
  5
2CB
100
AcDbEntity
  8
0
100
AcDbLine
 62
7
  6
CONTINUOUS
 10
11.9680791283
 20
15.4244368659
 11
12.4234835238
 21
15.4244368659
  0
LINE
  5
2CC
100
AcDbEntity
  8
0
100
AcDbLine
 62
7
  6
CONTINUOUS
 10
13.0104821947
 20
15.4244368659
 11
13.4499926208
 21
15.4244368659
  0
LINE
  5
2CD
100
AcDbEntity
  8
0
100
AcDbLine
 62
7
  6
CONTINUOUS
 10
10.9602869959
 20
15.4454639631
 11
11.101076032
 21
15.4454639631
  0
LINE
  5
2CE
100
AcDbEntity
  8
0
100
AcDbLine
 62
7
  6
CONTINUOUS
 10
7.3265459266
 20
15.4568548341
 11
7.7194245185
 21
15.4568548341
  0
LINE
  5
2CF
100
AcDbEntity
  8
0
100
AcDbLine
 62
7
  6
CONTINUOUS
 10
7.5400183006
 20
15.8179560896
 11
7.394678239
 21
15.8338181436
  0
LINE
  5
2D0
100
AcDbEntity
  8
0
100
AcDbLine
 62
7
  6
CONTINUOUS
 10
9.2047089282
 20
15.4681924767
 11
9.4499852527
 21
15.4386507318
  0
LINE
  5
2D1
100
AcDbEntity
  8
0
100
AcDbLine
 62
7
  6
CONTINUOUS
 10
10.8058182689
 20
15.4750057079
 11
10.9602869959
 21
15.4454639631
  0
LINE
  5
2D2
100
AcDbEntity
  8
0
100
AcDbLine
 62
7
  6
CONTINUOUS
 10
7.608150613
 20
16.7558931805
 11
7.723975544
 21
16.7082005618
  0
LINE
  5
2D3
100
AcDbEntity
  8
0
100
AcDbLine
 62
7
  6
CONTINUOUS
 10
10.6445895391
 20
15.5431380203
 11
10.8058182689
 21
15.4750057079
  0
LINE
  5
2D4
100
AcDbEntity
  8
0
100
AcDbLine
 62
7
  6
CONTINUOUS
 10
7.9738028941
 20
17.02842243
 11
7.8443515006
 21
17.1011057679
  0
LINE
  5
2D5
100
AcDbEntity
  8
0
100
AcDbLine
 62
7
  6
CONTINUOUS
 10
9.9519287728
 20
16.9920940681
 11
9.7838335833
 21
17.1101812048
  0
LINE
  5
2D6
100
AcDbEntity
  8
0
100
AcDbLine
 62
7
  6
CONTINUOUS
 10
11.7823991557
 20
15.8065652186
 11
11.4508396449
 21
16.0541303631
  0
LINE
  5
2D7
100
AcDbEntity
  8
0
100
AcDbLine
 62
7
  6
CONTINUOUS
 10
10.9511849447
 20
15.8338181436
 11
10.7921918064
 21
15.9564563059
  0
LINE
  5
2D8
100
AcDbEntity
  8
0
100
AcDbLine
 62
7
  6
CONTINUOUS
 10
11.3588610232
 20
16.6298484026
 11
11.4508396449
 21
16.5378697809
  0
LINE
  5
2D9
100
AcDbEntity
  8
0
100
AcDbLine
 62
7
  6
CONTINUOUS
 10
11.7755859244
 20
16.7967725679
 11
11.6097795549
 21
16.9761787857
  0
LINE
  5
2DA
100
AcDbEntity
  8
0
100
AcDbLine
 62
7
  6
CONTINUOUS
 10
7.7194245185
 20
15.4568548341
 11
7.9374479181
 21
15.5158850953
  0
LINE
  5
2DB
100
AcDbEntity
  8
0
100
AcDbLine
 62
7
  6
CONTINUOUS
 10
11.2668824015
 20
15.8452090146
 11
11.0919739809
 21
15.8111428584
  0
LINE
  5
2DC
100
AcDbEntity
  8
0
100
AcDbLine
 62
7
  6
CONTINUOUS
 10
7.6830961566
 20
15.8383957833
 11
7.5400183006
 21
15.8179560896
  0
LINE
  5
2DD
100
AcDbEntity
  8
0
100
AcDbLine
 62
7
  6
CONTINUOUS
 10
9.5749122348
 20
15.8474446061
 11
9.4545362783
 21
15.8315825521
  0
LINE
  5
2DE
100
AcDbEntity
  8
0
100
AcDbLine
 62
7
  6
CONTINUOUS
 10
5.4869734926
 20
16.1063473931
 11
5.9162070605
 21
16.1131606243
  0
LINE
  5
2DF
100
AcDbEntity
  8
0
100
AcDbLine
 62
7
  6
CONTINUOUS
 10
5.8730388532
 20
15.7724990625
 11
5.4869734926
 21
15.7724990625
  0
LINE
  5
2E0
100
AcDbEntity
  8
0
100
AcDbLine
 62
7
  6
CONTINUOUS
 10
12.4234835238
 20
16.0421520886
 11
13.0104821947
 21
16.0421520886
  0
LINE
  5
2E1
100
AcDbEntity
  8
0
100
AcDbLine
 62
7
  6
CONTINUOUS
 10
5.8617012106
 20
16.4220448499
 11
5.4914979039
 21
16.4220448499
  0
LINE
  5
2E2
100
AcDbEntity
  8
0
100
AcDbLine
 62
7
  6
CONTINUOUS
 10
9.4545362783
 20
15.8315825521
 11
9.3387113472
 21
15.8429201947
  0
LINE
  5
2E3
100
AcDbEntity
  8
0
100
AcDbLine
 62
7
  6
CONTINUOUS
 10
11.0919739809
 20
15.8111428584
 11
10.9511849447
 21
15.8338181436
  0
LINE
  5
2E4
100
AcDbEntity
  8
0
100
AcDbLine
 62
7
  6
CONTINUOUS
 10
9.429545559
 20
16.7627064117
 11
9.5635479781
 21
16.7331912811
  0
LINE
  5
2E5
100
AcDbEntity
  8
0
100
AcDbLine
 62
7
  6
CONTINUOUS
 10
7.8443515006
 20
17.1011057679
 11
7.6626564629
 21
17.1646870547
  0
LINE
  5
2E6
100
AcDbEntity
  8
0
100
AcDbLine
 62
7
  6
CONTINUOUS
 10
11.2282386056
 20
16.7104627675
 11
11.3588610232
 21
16.6298484026
  0
LINE
  5
2E7
100
AcDbEntity
  8
0
100
AcDbLine
 62
7
  6
CONTINUOUS
 10
11.6097795549
 20
16.9761787857
 11
11.4644661074
 21
17.0670396117
  0
LINE
  5
2E8
100
AcDbEntity
  8
0
100
AcDbLine
 62
7
  6
CONTINUOUS
 10
9.2932809343
 20
16.72408923
 11
9.429545559
 21
16.7627064117
  0
LINE
  5
2E9
100
AcDbEntity
  8
0
100
AcDbLine
 62
7
  6
CONTINUOUS
 10
10.8999236998
 20
16.7106945861
 11
11.086324202
 21
16.7559046511
  0
LINE
  5
2EA
100
AcDbEntity
  8
0
100
AcDbLine
 62
7
  6
CONTINUOUS
 10
11.0011663833
 20
17.1510605922
 11
10.8603241188
 21
17.1306208985
  0
LINE
  5
2EB
100
AcDbEntity
  8
0
100
AcDbLine
 62
7
  6
CONTINUOUS
 10
7.4300149971
 20
16.746968132
 11
7.608150613
 21
16.7558931805
  0
LINE
  5
2EC
100
AcDbEntity
  8
0
100
AcDbLine
 62
7
  6
CONTINUOUS
 10
6.1024265096
 20
17.0851904855
 11
5.0418246423
 21
17.0738528429
  0
LINE
  5
2ED
100
AcDbEntity
  8
0
100
AcDbLine
 62
7
  6
CONTINUOUS
 10
12.9644418343
 20
16.4816777749
 11
12.4393455778
 21
16.4816777749
  0
LINE
  5
2EE
100
AcDbEntity
  8
0
100
AcDbLine
 62
7
  6
CONTINUOUS
 10
13.4499926208
 20
17.0676383691
 11
12.9617018982
 21
17.0676383691
  0
LINE
  5
2EF
100
AcDbEntity
  8
0
100
AcDbLine
 62
7
  6
CONTINUOUS
 10
12.4393455778
 20
17.0926177345
 11
11.9770854401
 21
17.0926177345
  0
LINE
  5
2F0
100
AcDbEntity
  8
0
100
AcDbLine
 62
7
  6
CONTINUOUS
 10
11.153293062
 20
17.1510605922
 11
11.0011663833
 21
17.1510605922
  0
LINE
  5
2F1
100
AcDbEntity
  8
0
100
AcDbLine
 62
7
  6
CONTINUOUS
 10
9.5499215156
 20
17.1533227979
 11
9.331898116
 21
17.1533227979
  0
LINE
  5
2F2
100
AcDbEntity
  8
0
100
AcDbLine
 62
7
  6
CONTINUOUS
 10
7.6626564629
 20
17.1646870547
 11
7.5173164012
 21
17.1646870547
  0
LINE
  5
2F3
100
AcDbEntity
  8
0
100
AcDbLine
 62
7
  6
CONTINUOUS
 10
14.1897586106
 20
17.0739386951
 11
13.7332727
 21
17.0782696809
  0
LINE
  5
2F4
100
AcDbEntity
  8
0
100
AcDbLine
 62
7
  6
CONTINUOUS
 10
5.4869734926
 20
16.7218270243
 11
5.8548879794
 21
16.7150137931
  0
LINE
  5
2F5
100
AcDbEntity
  8
0
100
AcDbLine
 62
7
  6
CONTINUOUS
 10
11.3236238429
 20
17.1238076673
 11
11.153293062
 21
17.1510605922
  0
LINE
  5
2F6
100
AcDbEntity
  8
0
100
AcDbLine
 62
7
  6
CONTINUOUS
 10
9.7838335833
 20
17.1101812048
 11
9.5499215156
 21
17.1533227979
  0
LINE
  5
2F7
100
AcDbEntity
  8
0
100
AcDbLine
 62
7
  6
CONTINUOUS
 10
11.086324202
 20
16.7559046511
 11
11.2282386056
 21
16.7104627675
  0
LINE
  5
2F8
100
AcDbEntity
  8
0
100
AcDbLine
 62
7
  6
CONTINUOUS
 10
11.4644661074
 20
17.0670396117
 11
11.3236238429
 21
17.1238076673
  0
LINE
  5
2F9
100
AcDbEntity
  8
0
100
AcDbLine
 62
7
  6
CONTINUOUS
 10
9.331898116
 20
17.1533227979
 11
9.1593051294
 21
17.116994436
  0
LINE
  5
2FA
100
AcDbEntity
  8
0
100
AcDbLine
 62
7
  6
CONTINUOUS
 10
7.5173164012
 20
17.1646870547
 11
7.2197964325
 21
17.1419851553
  0
LINE
  5
2FB
100
AcDbEntity
  8
03___PRT_ALL_CURVES
100
AcDbLine
 62
7
  6
CONTINUOUS
 10
18.7067024965
 20
20.2655643204
 11
18.7067024965
 21
2.1655643204
  0
LINE
  5
2FC
100
AcDbEntity
  8
03___PRT_ALL_CURVES
100
AcDbLine
 62
7
  6
CONTINUOUS
 10
3.8167024965
 20
20.7655643204
 11
18.2067024965
 21
20.7655643204
  0
LINE
  5
2FD
100
AcDbEntity
  8
0
100
AcDbLine
 62
7
  6
CONTINUOUS
 10
5.0819302026
 20
6.8252278419
 11
5.0819302026
 21
7.0252278419
  0
LINE
  5
2FE
100
AcDbEntity
  8
0
100
AcDbLine
 62
7
  6
CONTINUOUS
 10
6.1877343111
 20
7.0596136067
 11
6.184020374
 21
7.1304797485
  0
LINE
  5
2FF
100
AcDbEntity
  8
0
100
AcDbLine
 62
7
  6
CONTINUOUS
 10
6.2819302026
 20
6.8502278419
 11
6.2819302026
 21
7.0002278419
  0
LINE
  5
300
100
AcDbEntity
  8
0
100
AcDbLine
 62
7
  6
CONTINUOUS
 10
6.3819143743
 20
6.9924563123
 11
6.4662913213
 21
5.3824482524
  0
LINE
  5
301
100
AcDbEntity
  8
0
100
AcDbLine
 62
7
  6
CONTINUOUS
 10
6.4844330041
 20
7.1075817799
 11
6.5561454716
 21
5.7392263852
  0
LINE
  5
302
100
AcDbEntity
  8
06___PRT_ALL_SURFS
100
AcDbLine
 62
7
  6
CONTINUOUS
 10
6.558974776
 20
5.6852400416
 11
6.5605980865
 21
5.6542654327
  0
LINE
  5
303
100
AcDbEntity
  8
0
100
AcDbLine
 62
7
  6
CONTINUOUS
 10
6.546204667
 20
5.3600624876
 11
6.5525543115
 21
5.4812209212
  0
LINE
  5
304
100
AcDbEntity
  8
0
100
AcDbLine
 62
7
  6
CONTINUOUS
 10
6.4898809954
 20
5.3600624876
 11
9.4739794098
 21
5.3600624876
  0
LINE
  5
305
100
AcDbEntity
  8
0
100
AcDbLine
 62
7
  6
CONTINUOUS
 10
8.4937412262
 20
5.606599452
 11
8.4307806648
 21
5.5954978063
  0
LINE
  5
306
100
AcDbEntity
  8
0
100
AcDbLine
 62
7
  6
CONTINUOUS
 10
8.4340170685
 20
5.5246212253
 11
9.3120022681
 21
5.5706344799
  0
LINE
  5
307
100
AcDbEntity
  8
06___PRT_ALL_SURFS
100
AcDbLine
 62
6
  6
CONTINUOUS
 10
8.2968908325
 20
5.59628296
 11
9.4032623187
 21
5.6542654327
  0
LINE
  5
308
100
AcDbEntity
  8
0
100
AcDbLine
 62
7
  6
CONTINUOUS
 10
8.4937412262
 20
5.606599452
 11
9.3183013671
 21
5.6498128179
  0
LINE
  5
309
100
AcDbEntity
  8
0
100
AcDbLine
 62
7
  6
CONTINUOUS
 10
8.4327807861
 20
5.5245888521
 11
8.4340170685
 21
5.5246212253
  0
LINE
  5
30A
100
AcDbEntity
  8
0
100
AcDbLine
 62
7
  6
CONTINUOUS
 10
8.4327809344
 20
5.5246052877
 11
8.4340170685
 21
5.5246212253
  0
LINE
  5
30B
100
AcDbEntity
  8
0
100
AcDbLine
 62
7
  6
CONTINUOUS
 10
8.4327807861
 20
5.5245888521
 11
7.5310796191
 21
5.5245888521
  0
LINE
  5
30C
100
AcDbEntity
  8
06___PRT_ALL_SURFS
100
AcDbLine
 62
7
  6
CONTINUOUS
 10
7.6669695726
 20
5.59628296
 11
8.2968908325
 21
5.59628296
  0
LINE
  5
30D
100
AcDbEntity
  8
0
100
AcDbLine
 62
7
  6
CONTINUOUS
 10
8.4937412262
 20
5.606599452
 11
7.4701191789
 21
5.606599452
  0
LINE
  5
30E
100
AcDbEntity
  8
0
100
AcDbLine
 62
7
  6
CONTINUOUS
 10
7.5310794707
 20
5.5246052877
 11
7.5298433366
 21
5.5246212253
  0
LINE
  5
30F
100
AcDbEntity
  8
0
100
AcDbLine
 62
7
  6
CONTINUOUS
 10
7.5310796191
 20
5.5245888521
 11
7.5298433366
 21
5.5246212253
  0
LINE
  5
310
100
AcDbEntity
  8
0
100
AcDbLine
 62
7
  6
CONTINUOUS
 10
7.5298433366
 20
5.5246212253
 11
6.651858137
 21
5.5706344799
  0
LINE
  5
311
100
AcDbEntity
  8
0
100
AcDbLine
 62
7
  6
CONTINUOUS
 10
7.4701191789
 20
5.606599452
 11
6.645559038
 21
5.6498128179
  0
LINE
  5
312
100
AcDbEntity
  8
06___PRT_ALL_SURFS
100
AcDbLine
 62
6
  6
CONTINUOUS
 10
7.6669695726
 20
5.59628296
 11
6.5605980865
 21
5.6542654327
  0
LINE
  5
313
100
AcDbEntity
  8
0
100
AcDbLine
 62
7
  6
CONTINUOUS
 10
7.4701191789
 20
5.606599452
 11
7.5330797404
 21
5.5954978063
  0
LINE
  5
314
100
AcDbEntity
  8
0
100
AcDbLine
 62
7
  6
CONTINUOUS
 10
7.5525099731
 20
5.5742934281
 11
7.5546117773
 21
5.5502696965
  0
LINE
  5
315
100
AcDbEntity
  8
0
100
AcDbLine
 62
7
  6
CONTINUOUS
 10
8.411350432
 20
5.5742934281
 11
8.4092486278
 21
5.5502696965
  0
LINE
  5
316
100
AcDbEntity
  8
0
100
AcDbLine
 62
7
  6
CONTINUOUS
 10
10.8819302026
 20
6.8252278419
 11
9.7069302026
 21
6.8252278419
  0
LINE
  5
317
100
AcDbEntity
  8
0
100
AcDbLine
 62
7
  6
CONTINUOUS
 10
6.2569302026
 20
6.8252278419
 11
5.0819302026
 21
6.8252278419
  0
LINE
  5
318
100
AcDbEntity
  8
0
100
AcDbLine
 62
7
  6
CONTINUOUS
 10
10.8819302026
 20
7.0252278419
 11
9.7069302026
 21
7.0252278419
  0
LINE
  5
319
100
AcDbEntity
  8
0
100
AcDbLine
 62
7
  6
CONTINUOUS
 10
6.2569302026
 20
7.0252278419
 11
5.0819302026
 21
7.0252278419
  0
LINE
  5
31A
100
AcDbEntity
  8
0
100
AcDbLine
 62
7
  6
CONTINUOUS
 10
9.75253642
 20
7.0372278419
 11
9.6291253789
 21
7.0372278419
  0
LINE
  5
31B
100
AcDbEntity
  8
0
100
AcDbLine
 62
7
  6
CONTINUOUS
 10
6.3347350262
 20
7.0372278419
 11
6.2113239852
 21
7.0372278419
  0
LINE
  5
31C
100
AcDbEntity
  8
0
100
AcDbLine
 62
7
  6
CONTINUOUS
 10
6.207610048
 20
7.1553380782
 11
9.7562503571
 21
7.1553380782
  0
LINE
  5
31D
100
AcDbEntity
  8
0
100
AcDbLine
 62
7
  6
CONTINUOUS
 10
9.4176557381
 20
5.3600624876
 11
9.4113060937
 21
5.4812209212
  0
LINE
  5
31E
100
AcDbEntity
  8
0
100
AcDbLine
 62
7
  6
CONTINUOUS
 10
9.479427401
 20
7.1075817799
 11
9.4077149335
 21
5.7392263852
  0
LINE
  5
31F
100
AcDbEntity
  8
06___PRT_ALL_SURFS
100
AcDbLine
 62
7
  6
CONTINUOUS
 10
9.4032623187
 20
5.6542654327
 11
9.4048856291
 21
5.6852400416
  0
LINE
  5
320
100
AcDbEntity
  8
0
100
AcDbLine
 62
7
  6
CONTINUOUS
 10
9.5819460308
 20
6.9924563123
 11
9.4975690838
 21
5.3824482524
  0
LINE
  5
321
100
AcDbEntity
  8
0
100
AcDbLine
 62
7
  6
CONTINUOUS
 10
9.6819302026
 20
6.8502278419
 11
9.6819302026
 21
7.0002278419
  0
LINE
  5
322
100
AcDbEntity
  8
0
100
AcDbLine
 62
7
  6
CONTINUOUS
 10
9.776126094
 20
7.0596136067
 11
9.7798400311
 21
7.1304797485
  0
LINE
  5
323
100
AcDbEntity
  8
0
100
AcDbLine
 62
7
  6
CONTINUOUS
 10
10.8819302026
 20
6.8252278419
 11
10.8819302026
 21
7.0252278419
  0
ARC
  5
324
100
AcDbEntity
  8
03___PRT_ALL_CURVES
100
AcDbCircle
 62
7
  6
CONTINUOUS
 10
3.8167024965
 20
20.2655643204
 40
0.5
100
AcDbArc
 50
90.0
 51
180.0
  0
ARC
  5
325
100
AcDbEntity
  8
03___PRT_ALL_CURVES
100
AcDbCircle
 62
7
  6
CONTINUOUS
 10
3.8167024965
 20
2.1655643204
 40
0.5
100
AcDbArc
 50
180.0
 51
270.0
  0
ARC
  5
326
100
AcDbEntity
  8
03___PRT_ALL_CURVES
100
AcDbCircle
 62
7
  6
CONTINUOUS
 10
18.2067024965
 20
2.1655643204
 40
0.5
100
AcDbArc
 50
270.0
 51
360.0
  0
ARC
  5
327
100
AcDbEntity
  8
03___PRT_ALL_CURVES
100
AcDbCircle
 62
7
  6
CONTINUOUS
 10
18.2067024965
 20
20.2655643204
 40
0.5
100
AcDbArc
 50
0.0
 51
90.0
  0
ARC
  5
328
100
AcDbEntity
  8
0
100
AcDbCircle
 62
2
  6
CONTINUOUS
 10
18.2067024965
 20
2.1655643204
 40
0.5
100
AcDbArc
 50
0.0
 51
121.3621626881
  0
ARC
  5
329
100
AcDbEntity
  8
0
100
AcDbCircle
 62
7
  6
CONTINUOUS
 10
9.3133562373
 20
5.744171515
 40
0.094488189
100
AcDbArc
 50
273.0000000016
 51
357.0
  0
ARC
  5
32A
100
AcDbEntity
  8
0
100
AcDbCircle
 62
7
  6
CONTINUOUS
 10
6.6505041678
 20
5.744171515
 40
0.094488189
100
AcDbArc
 50
183.0
 51
266.9999999984
  0
ARC
  5
32B
100
AcDbEntity
  8
0
100
AcDbCircle
 62
7
  6
CONTINUOUS
 10
6.6469130077
 20
5.4762757915
 40
0.0944881889
100
AcDbArc
 50
87.0
 51
177.0
  0
ARC
  5
32C
100
AcDbEntity
  8
0
100
AcDbCircle
 62
7
  6
CONTINUOUS
 10
9.3169473975
 20
5.4762757915
 40
0.0944881889
100
AcDbArc
 50
3.0
 51
93.0
  0
ARC
  5
32D
100
AcDbEntity
  8
0
100
AcDbCircle
 62
7
  6
CONTINUOUS
 10
6.4341083661
 20
7.1049443774
 40
0.0503937008
100
AcDbArc
 50
3.0
 51
90.0
  0
ARC
  5
32E
100
AcDbEntity
  8
0
100
AcDbCircle
 62
7
  6
CONTINUOUS
 10
9.529752039
 20
7.1049443774
 40
0.0503937008
100
AcDbArc
 50
90.0
 51
177.0
  0
ARC
  5
32F
100
AcDbEntity
  8
0
100
AcDbCircle
 62
7
  6
CONTINUOUS
 10
6.3347350262
 20
6.9899837474
 40
0.0472440945
100
AcDbArc
 50
3.0
 51
90.0
  0
ARC
  5
330
100
AcDbEntity
  8
0
100
AcDbCircle
 62
7
  6
CONTINUOUS
 10
9.6291253789
 20
6.9899837474
 40
0.0472440945
100
AcDbArc
 50
90.0
 51
177.0
  0
ARC
  5
331
100
AcDbEntity
  8
0
100
AcDbCircle
 62
7
  6
CONTINUOUS
 10
6.2569302026
 20
6.8502278419
 40
0.025
100
AcDbArc
 50
270.0
 51
360.0
  0
ARC
  5
332
100
AcDbEntity
  8
0
100
AcDbCircle
 62
7
  6
CONTINUOUS
 10
6.2569302026
 20
7.0002278419
 40
0.025
100
AcDbArc
 50
0.0
 51
90.0
  0
ARC
  5
333
100
AcDbEntity
  8
0
100
AcDbCircle
 62
7
  6
CONTINUOUS
 10
9.7069302026
 20
7.0002278419
 40
0.025
100
AcDbArc
 50
90.0
 51
180.0
  0
ARC
  5
334
100
AcDbEntity
  8
0
100
AcDbCircle
 62
7
  6
CONTINUOUS
 10
9.7069302026
 20
6.8502278419
 40
0.025
100
AcDbArc
 50
180.0
 51
270.0
  0
ARC
  5
335
100
AcDbEntity
  8
0
100
AcDbCircle
 62
7
  6
CONTINUOUS
 10
8.4327807861
 20
5.5482108994
 40
0.0236220472
100
AcDbArc
 50
175.0
 51
270.0003601782
  0
ARC
  5
336
100
AcDbEntity
  8
0
100
AcDbCircle
 62
7
  6
CONTINUOUS
 10
7.5310796191
 20
5.5482108994
 40
0.0236220472
100
AcDbArc
 50
269.9996398218
 51
5.0
  0
ARC
  5
337
100
AcDbEntity
  8
0
100
AcDbCircle
 62
7
  6
CONTINUOUS
 10
9.4739794098
 20
5.3836845348
 40
0.0236220472
100
AcDbArc
 50
270.0
 51
357.0
  0
ARC
  5
338
100
AcDbEntity
  8
0
100
AcDbCircle
 62
7
  6
CONTINUOUS
 10
6.4898809954
 20
5.3836845348
 40
0.0236220472
100
AcDbArc
 50
183.0
 51
270.0
  0
ARC
  5
339
100
AcDbEntity
  8
0
100
AcDbCircle
 62
7
  6
CONTINUOUS
 10
9.75253642
 20
7.0608498892
 40
0.0236220472
100
AcDbArc
 50
270.0
 51
357.0
  0
ARC
  5
33A
100
AcDbEntity
  8
0
100
AcDbCircle
 62
7
  6
CONTINUOUS
 10
6.2113239852
 20
7.0608498892
 40
0.0236220472
100
AcDbArc
 50
183.0
 51
270.0
  0
ARC
  5
33B
100
AcDbEntity
  8
0
100
AcDbCircle
 62
7
  6
CONTINUOUS
 10
9.7562503571
 20
7.1317160309
 40
0.0236220472
100
AcDbArc
 50
357.0
 51
90.0
  0
ARC
  5
33C
100
AcDbEntity
  8
0
100
AcDbCircle
 62
7
  6
CONTINUOUS
 10
6.207610048
 20
7.1317160309
 40
0.0236220472
100
AcDbArc
 50
90.0
 51
183.0
  0
ARC
  5
33D
100
AcDbEntity
  8
0
100
AcDbCircle
 62
7
  6
CONTINUOUS
 10
8.4348825902
 20
5.5722346311
 40
0.0236220472
100
AcDbArc
 50
100.0
 51
175.0
  0
ARC
  5
33E
100
AcDbEntity
  8
0
100
AcDbCircle
 62
7
  6
CONTINUOUS
 10
7.5289778149
 20
5.5722346311
 40
0.0236220472
100
AcDbArc
 50
5.0
 51
80.0
  0
SPLINE
  5
33F
100
AcDbEntity
  8
06___PRT_ALL_SURFS
100
AcDbSpline
 62
7
  6
CONTINUOUS
 70
0
 71
3
 72
13
 73
9
 74
0
 42
0.0000001
 43
0.0000001
 44
0.0000000001
 40
0.0
 40
0.0
 40
0.0
 40
0.0
 40
0.1883904128
 40
0.3585173517
 40
0.5197182555
 40
0.6783429799
 40
0.8382060281
 40
1.0
 40
1.0
 40
1.0
 40
1.0
 10
9.4048856291
 20
5.6852400416
 30
0.0
 10
9.3155638095
 20
5.6819235218
 30
0.0
 10
9.14556829
 20
5.6759053859
 30
0.0
 10
8.8991014717
 20
5.6682574145
 30
0.0
 10
8.666715982
 20
5.6622470578
 30
0.0
 10
8.439166273
 20
5.6577611952
 30
0.0
 10
8.2113082397
 20
5.654919543
 30
0.0
 10
8.0586946737
 20
5.6542654327
 30
0.0
 10
7.9819302026
 20
5.6542654327
 30
0.0
  0
SPLINE
  5
340
100
AcDbEntity
  8
06___PRT_ALL_SURFS
100
AcDbSpline
 62
7
  6
CONTINUOUS
 70
0
 71
3
 72
13
 73
9
 74
0
 42
0.0000001
 43
0.0000001
 44
0.0000000001
 40
0.0
 40
0.0
 40
0.0
 40
0.0
 40
0.1634051649
 40
0.3245159543
 40
0.4837514645
 40
0.6448145715
 40
0.8138917913
 40
1.0
 40
1.0
 40
1.0
 40
1.0
 10
7.9819302026
 20
5.6542654327
 30
0.0
 10
7.9044012887
 20
5.6542654327
 30
0.0
 10
7.7504312578
 20
5.6549320211
 30
0.0
 10
7.5209273939
 20
5.657819526
 30
0.0
 10
7.2925620302
 20
5.6623520948
 30
0.0
 10
7.060450809
 20
5.6683826626
 30
0.0
 10
6.8156300362
 20
5.6759980298
 30
0.0
 10
6.6472145299
 20
5.6819636989
 30
0.0
 10
6.558974776
 20
5.6852400416
 30
0.0
  0
ENDSEC
  0
SECTION
  2
OBJECTS
  0
DICTIONARY
  5
C
100
AcDbDictionary
280
0
281
1
  3
ACAD_GROUP
350
D
  3
ACAD_MLINESTYLE
350
17
  3
ACAD_LAYOUT
350
1A
  3
ACAD_PLOTSETTINGS
350
19
  3
ACAD_PLOTSTYLENAME
350
E
  0
DICTIONARY
  5
D
102
{ACAD_REACTORS
330
C
102
}
100
AcDbDictionary
280
0
281
1
  0
ACDBDICTIONARYWDFLT
  5
E
102
{ACAD_REACTORS
330
C
102
}
100
AcDbDictionary
281
1
  3
Normal
350
F
100
AcDbDictionaryWithDefault
340
F
  0
DICTIONARY
  5
17
102
{ACAD_REACTORS
330
C
102
}
100
AcDbDictionary
280
0
281
1
  3
Standard
350
18
  0
DICTIONARY
  5
19
102
{ACAD_REACTORS
330
C
102
}
100
AcDbDictionary
281
1
  0
DICTIONARY
  5
1A
102
{ACAD_REACTORS
330
C
102
}
100
AcDbDictionary
281
1
  3
Model
350
341
  3
Layout1
350
342
  0
ACDBPLACEHOLDER
  5
F
102
{ACAD_REACTORS
330
E
102
}
  0
MLINESTYLE
  5
18
102
{ACAD_REACTORS
330
17
102
}
100
AcDbMlineStyle
  2
STANDARD
 70
0
  3

 62
256
 51
90.0
 52
90.0
 71
2
 49
0.5
 62
256
  6
BYLAYER
 49
-0.5
 62
256
  6
BYLAYER
  0
LAYOUT
  5
341
102
{ACAD_REACTORS
330
1A
102
}
100
AcDbPlotSettings
  1

  2
none_device
  4
ANSI_D_(34.00_x_22.00_Inches)
  6

 40
0.0
 41
0.0
 42
0.0
 43
0.0
 44
863.6
 45
558.8
 46
0.0
 47
0.0
 48
0.0
 49
0.0
140
0.0
141
0.0
142
1.0
143
1.0
 70
1024
 72
0
 73
0
 74
0
  7

 75
0
147
1.0
148
0.0
149
0.0
100
AcDbLayout
  1
Model
 70
0
 71
0
 10
0.0
 20
0.0
 11
34.0
 21
22.0
 12
0.0
 22
0.0
 32
0.0
 14
0.0
 24
0.0
 34
0.0
 15
0.0
 25
0.0
 35
0.0
146
0.0
 13
0.0
 23
0.0
 33
0.0
 16
1.0
 26
0.0
 36
0.0
 17
0.0
 27
1.0
 37
0.0
 76
0
330
21A
345
0
346
0
  0
LAYOUT
  5
342
102
{ACAD_REACTORS
330
1A
102
}
100
AcDbPlotSettings
  1

  2
none_device
  4
ANSI_D_(34.00_x_22.00_Inches)
  6

 40
0.0
 41
0.0
 42
0.0
 43
0.0
 44
863.6
 45
558.8
 46
0.0
 47
0.0
 48
0.0
 49
0.0
140
0.0
141
0.0
142
1.0
143
1.0
 70
0
 72
0
 73
0
 74
0
  7

 75
0
147
1.0
148
0.0
149
0.0
100
AcDbLayout
  1
Layout1
 70
0
 71
1
 10
0.0
 20
0.0
 11
34.0
 21
22.0
 12
0.0
 22
0.0
 32
0.0
 14
0.0
 24
0.0
 34
0.0
 15
0.0
 25
0.0
 35
0.0
146
0.0
 13
0.0
 23
0.0
 33
0.0
 16
1.0
 26
0.0
 36
0.0
 17
0.0
 27
1.0
 37
0.0
 76
0
330
21B
345
0
346
0
  0
ENDSEC
  0
EOF
